Movies torrents - Action torrents

Dragon.Ball.Z.Movie.07.Super.Android.13.1992.iNTERNAL.BDRip.x264-TABULARiA[PRiME] torrent

Download Direct: Dragon.Ball.Z.Movie.07.Super.Android.13.1992.iNTERNAL.BDRip.x264-TABULARiA[PRiME] - No Client needed
(0) (0)
Download torrent: Dragon.Ball.Z.Movie.07.Super.Android.13.1992.iNTERNAL.BDRip.x264-TABULARiA[PRiME] torrent download
Torrent created: 25 Nov 2016 13:31:08
Torrent added: 25 Nov 2016 14:25:02 Report this torrent as fake!
Torrent's info hash: D4C9EB98D3CFAFA0713094BE3BF0C855EFF490FB
Category: Movies / Action
Seeds: - Scraping... Last scraped 8 h ago
Leeches: -
Downloads: -
Announce(s):
Tracker S L DL
udp://tracker.ilibr.org:6969/announce---
udp://tracker.coppersurfer.tk:6969---
udp://tracker.ilibr.org:80/announce---
udp://tracker.coppersurfer.tk:6969/announce---
udp://tracker.leechers-paradise.org:6969/announce---
udp://tracker.opentrackr.org:1337/announce
udp://tracker.zer0day.to:1337/announce
udp://ipv4.tracker.harry.lu:80/announce
udp://p4p.arenabg.ch:1337/announce
udp://p4p.arenabg.com:1337/announce
udp://9.rarbg.com:2710/announce
udp://9.rarbg.to:2710/announce
udp://9.rarbg.me:2710/announce
udp://explodie.org:6969/announce
udp://eddie4.nl:6969/announce
Total Size: 480.82 MB
Files:
Dragon.Ball.Z.Movie.07.Super.Android.13.1992.iNTERNAL.BDRip.x264-TABULARiA[PRiME]/Dragon.Ball.Z.Movie.07.Super.Android.13.1992.iNTERNAL.BDRip.x264-TABULARiA[PRiME].mkv - 480.82 MB
Dragon.Ball.Z.Movie.07.Super.Android.13.1992.iNTERNAL.BDRip.x264-TABULARiA[PRiME]/Please Support!! Read More!!!.txt - 232 B
Dragon.Ball.Z.Movie.07.Super.Android.13.1992.iNTERNAL.BDRip.x264-TABULARiA[PRiME]/Torrent Downloaded From 1337x.to.txt - 69 B
Dragon.Ball.Z.Movie.07.Super.Android.13.1992.iNTERNAL.BDRip.x264-TABULARiA[PRiME]/Torrent Downloaded From ExtraTorrent.cc.txt - 446 B
Dragon.Ball.Z.Movie.07.Super.Android.13.1992.iNTERNAL.BDRip.x264-TABULARiA[PRiME]/Torrent downloaded from AhaShare.com.txt - 59 B

Description



Dragon.Ball.Z.Movie.07.Super.Android.13.1992.iNTERNAL.BDRip.x264-TABULARiA[PRiME]



ImDb: http://www.imdb.com/title/tt0142241



Info.png



Complete name : Dragon.Ball.Z.Movie.07.Super.Android.13.1992.iNTERNAL.BDRip.x264-TABULARiA[PRiME].mkv

Format : Matroska

Format version : Version 4 / Version 2

File size : 481 MiB

Duration : 46 min 0 s

Overall bit rate : 1 461 kb/s

Encoded date : UTC 2016-11-15 11:48:19

Writing application : mkvmerge v9.3.1 ('Mask Machine') 64bit

Writing library : libebml v1.3.4 + libmatroska v1.4.5



Video

ID : 1

Format : AVC

Format/Info : Advanced Video Codec

Format profile : [email protected]/* */

Format settings, CABAC : Yes

Format settings, ReFrames : 5 frames

Codec ID : V_MPEG4/ISO/AVC

Duration : 46 min 0 s

Bit rate : 1 289 kb/s

Width : 720 pixels

Height : 404 pixels

Display aspect ratio : 16:9

Frame rate mode : Constant

Frame rate : 23.976 (24000/1001) FPS

Color space : YUV

Chroma subsampling : 4:2:0

Bit depth : 8 bits

Scan type : Progressive

Bits/(Pixel*Frame) : 0.185

Stream size : 424 MiB (88%)

Writing library : x264 core 148 r2705 3f5ed56

Encoding settings : cabac=1 / ref=5 / deblock=1:2:1 / analyse=0x3:0x113 / me=umh / subme=8 / psy=1 / psy_rd=1.00:0.00 / mixed_ref=1 / me_range=16 / chroma_me=1 / trellis=1 / 8x8dct=1 / cqm=0 / deadzone=21,11 / fast_pskip=1 / chroma_qp_offset=-2 / threads=13 / lookahead_threads=2 / sliced_threads=0 / nr=0 / decimate=1 / interlaced=0 / bluray_compat=0 / constrained_intra=0 / bframes=3 / b_pyramid=2 / b_adapt=2 / b_bias=0 / direct=3 / weightb=1 / open_gop=0 / weightp=2 / keyint=250 / keyint_min=23 / scenecut=40 / intra_refresh=0 / rc_lookahead=50 / rc=crf / mbtree=1 / crf=21.0 / qcomp=0.60 / qpmin=0 / qpmax=69 / qpstep=4 / ip_ratio=1.40 / aq=1:1.00

Language : English

Default : Yes

Forced : No

Color range : Limited

Matrix coefficients : BT.709



Audio #1

ID : 2

Format : AAC

Format/Info : Advanced Audio Codec

Format profile : LC

Codec ID : A_AAC

Duration : 46 min 0 s

Bit rate : 108 kb/s

Channel(s) : 2 channels

Channel positions : Front: L R

Sampling rate : 48.0 kHz

Frame rate : 46.875 FPS (1024 spf)

Compression mode : Lossy

Delay relative to video : 9 ms

Stream size : 35.6 MiB (7%)

Title : English

Language : English

Default : Yes

Forced : No



Audio #2

ID : 3

Format : AAC

Format/Info : Advanced Audio Codec

Format profile : LC

Codec ID : A_AAC

Duration : 46 min 0 s

Bit rate : 60.9 kb/s

Channel(s) : 1 channel

Channel positions : Front: C

Sampling rate : 48.0 kHz

Frame rate : 46.875 FPS (1024 spf)

Compression mode : Lossy

Delay relative to video : 9 ms

Stream size : 20.0 MiB (4%)

Title : Japanese

Language : Japanese

Default : No

Forced : No



Text #1

ID : 4

Format : UTF-8

Codec ID : S_TEXT/UTF8

Codec ID/Info : UTF-8 Plain Text

Duration : 45 min 3 s

Bit rate : 29 b/s

Count of elements : 270

Stream size : 9.58 KiB (0%)

Title : English

Language : English

Default : No

Forced : No



Text #2

ID : 5

Format : UTF-8

Codec ID : S_TEXT/UTF8

Codec ID/Info : UTF-8 Plain Text

Duration : 43 min 41 s

Bit rate : 3 b/s

Count of elements : 26

Stream size : 1.19 KiB (0%)

Title : English Forced

Language : English

Default : Yes

Forced : No




Screens.png



Click Image To View Full Size



52RM6.th.jpg

Click To View Screenshot

Click To View Screenshot

Click To View Screenshot



Comments:

proxy download |proxyadder |proxybeing.com |proxyblank |