Movies torrents - Crime torrents

Black.Dagger.1968.1080p.BluRay.x264-GHOULS[PRiME] torrent

Download Direct: Black.Dagger.1968.1080p.BluRay.x264-GHOULS[PRiME] - No Client needed
(0) (0)
Download torrent: Black.Dagger.1968.1080p.BluRay.x264-GHOULS[PRiME] torrent download
Torrent created: 25 Nov 2016 13:08:56
Torrent added: 25 Nov 2016 13:45:02 Report this torrent as fake!
Torrent's info hash: 71A1FEBD751AE8FC4830DF687F85C141C33FC9BD
Category: Movies / Crime
Seeds: - Scraping... Last scraped 1 h ago
Leeches: -
Downloads: -
Announce(s):
Tracker S L DL
udp://tracker.ilibr.org:6969/announce---
udp://tracker.coppersurfer.tk:6969---
udp://tracker.ilibr.org:80/announce---
udp://tracker.coppersurfer.tk:6969/announce---
udp://tracker.leechers-paradise.org:6969/announce---
udp://tracker.opentrackr.org:1337/announce
udp://tracker.zer0day.to:1337/announce
udp://ipv4.tracker.harry.lu:80/announce
udp://p4p.arenabg.ch:1337/announce
udp://p4p.arenabg.com:1337/announce
udp://9.rarbg.com:2710/announce
udp://9.rarbg.to:2710/announce
udp://9.rarbg.me:2710/announce
udp://explodie.org:6969/announce
udp://eddie4.nl:6969/announce
Total Size: 6.63 GB
Files:
Black.Dagger.1968.1080p.BluRay.x264-GHOULS[PRiME]/Please Support!! Read More!!!.txt - 232 B
Black.Dagger.1968.1080p.BluRay.x264-GHOULS[PRiME]/Sample/black.dagger.1968.1080p.bluray.x264-ghouls.sample[PRiME].mkv - 74.75 MB
Black.Dagger.1968.1080p.BluRay.x264-GHOULS[PRiME]/Torrent Downloaded From 1337x.to.txt - 69 B
Black.Dagger.1968.1080p.BluRay.x264-GHOULS[PRiME]/Torrent Downloaded From ExtraTorrent.cc.txt - 446 B
Black.Dagger.1968.1080p.BluRay.x264-GHOULS[PRiME]/Torrent downloaded from AhaShare.com.txt - 59 B
Black.Dagger.1968.1080p.BluRay.x264-GHOULS[PRiME]/black.dagger.1968.1080p.bluray.x264-ghouls[PRiME].mkv - 6.56 GB

Description



Black.Dagger.1968.1080p.BluRay.x264-GHOULS[PRiME]



ImDb: http://www.imdb.com/title/tt0228095



Info.png



Complete name : black.dagger.1968.1080p.bluray.x264-ghouls[PRiME].mkv

Format : Matroska

Format version : Version 4 / Version 2

File size : 6.56 GiB

Duration : 1 h 26 min

Overall bit rate : 10.9 Mb/s

Encoded date : UTC 2016-11-24 19:09:25

Writing application : mkvmerge v9.5.0 ('Quiet Fire') 32bit

Writing library : libebml v1.3.4 + libmatroska v1.4.5



Video

ID : 3

Format : AVC

Format/Info : Advanced Video Codec

Format profile : [email protected]/* */

Format settings, CABAC : Yes

Format settings, ReFrames : 5 frames

Codec ID : V_MPEG4/ISO/AVC

Duration : 1 h 26 min

Bit rate : 10.2 Mb/s

Width : 1 920 pixels

Height : 792 pixels

Display aspect ratio : 2.40:1

Frame rate mode : Constant

Frame rate : 23.976 (24000/1001) FPS

Color space : YUV

Chroma subsampling : 4:2:0

Bit depth : 8 bits

Scan type : Progressive

Bits/(Pixel*Frame) : 0.281

Stream size : 6.05 GiB (92%)

Writing library : x264 core 148 r2721 72d53ab

Encoding settings : cabac=1 / ref=5 / deblock=1:-3:-3 / analyse=0x3:0x133 / me=umh / subme=8 / psy=1 / psy_rd=1.00:0.00 / mixed_ref=1 / me_range=16 / chroma_me=1 / trellis=1 / 8x8dct=1 / cqm=0 / deadzone=21,11 / fast_pskip=0 / chroma_qp_offset=-2 / threads=6 / lookahead_threads=1 / sliced_threads=0 / nr=0 / decimate=1 / interlaced=0 / bluray_compat=0 / constrained_intra=0 / bframes=3 / b_pyramid=2 / b_adapt=1 / b_bias=0 / direct=3 / weightb=1 / open_gop=0 / weightp=2 / keyint=240 / keyint_min=23 / scenecut=40 / intra_refresh=0 / rc_lookahead=50 / rc=2pass / mbtree=1 / bitrate=10238 / ratetol=1.0 / qcomp=0.60 / qpmin=0 / qpmax=69 / qpstep=4 / cplxblur=20.0 / qblur=0.5 / vbv_maxrate=62500 / vbv_bufsize=78125 / nal_hrd=none / filler=0 / ip_ratio=1.40 / aq=1:1.00

Default : Yes

Forced : No



Audio

ID : 1

Format : AC-3

Format/Info : Audio Coding 3

Mode extension : CM (complete main)

Format settings, Endianness : Big

Codec ID : A_AC3

Duration : 1 h 26 min

Bit rate mode : Constant

Bit rate : 640 kb/s

Channel(s) : 1 channel

Channel positions : Front: C

Sampling rate : 48.0 kHz

Frame rate : 31.250 FPS (1536 spf)

Compression mode : Lossy

Stream size : 395 MiB (6%)

Language : Japanese

Default : Yes

Forced : No



Text

ID : 2

Format : UTF-8

Codec ID : S_TEXT/UTF8

Codec ID/Info : UTF-8 Plain Text

Language : English

Default : Yes

Forced : No



Menu

00:00:00.000 : en:00:00:00.000

00:07:10.764 : en:00:07:10.764

00:12:23.534 : en:00:12:23.534

00:19:14.862 : en:00:19:14.862

00:27:55.007 : en:00:27:55.007

00:38:12.415 : en:00:38:12.415

00:42:28.045 : en:00:42:28.045

00:50:04.752 : en:00:50:04.752

00:56:40.230 : en:00:56:40.230

01:03:59.252 : en:01:03:59.252

01:11:37.418 : en:01:11:37.418

01:18:06.515 : en:01:18:06.515




Screens.png



Click Image To View Full Size



5xG99.th.jpg

Click To View Screenshot

Click To View Screenshot

Click To View Screenshot



Comments:

proxy download |proxyadder |proxybeing.com |proxyblank |