Series / TV Shows torrents - Suits torrents

Suits.S01.COMPLETE.720p.BluRay.x264.AC3.5.1-LeRalouf torrent

Download Direct: Suits.S01.COMPLETE.720p.BluRay.x264.AC3.5.1-LeRalouf - No Client needed
(0) (0)
Download torrent: Suits.S01.COMPLETE.720p.BluRay.x264.AC3.5.1-LeRalouf torrent download
Torrent created: 13 May 2016 11:21:37
Torrent added: 25 Nov 2016 13:25:02 Report this torrent as fake!
Torrent's info hash: C84079C30D78E8BC6848E26A3BF47954C95F2B59
Category: Series / TV Shows / Suits
Seeds: - Scraping... Last scraped 20 h ago
Leeches: -
Downloads: -
Announce(s):
Tracker S L DL
udp://tracker.coppersurfer.tk:6969/announce---
udp://9.rarbg.com:2710/announce---
Total Size: 10.78 GB
Files:
Suits.S01.COMPLETE.720p.BluRay.x264.AC3.5.1-LeRalouf/Suits.S01E01.Pilot.720p.BluRay.x264.AC3.5.1-LeRalouf.mkv - 1.41 GB
Suits.S01.COMPLETE.720p.BluRay.x264.AC3.5.1-LeRalouf/Suits.S01E01.Pilot.720p.BluRay.x264.AC3.5.1-LeRalouf.srt - 109.7 KB
Suits.S01.COMPLETE.720p.BluRay.x264.AC3.5.1-LeRalouf/Suits.S01E02.Errors.And.Omissions.720p.BluRay.x264.AC3.5.1-LeRalouf.mkv - 820.27 MB
Suits.S01.COMPLETE.720p.BluRay.x264.AC3.5.1-LeRalouf/Suits.S01E02.Errors.And.Omissions.720p.BluRay.x264.AC3.5.1-LeRalouf.srt - 63.32 KB
Suits.S01.COMPLETE.720p.BluRay.x264.AC3.5.1-LeRalouf/Suits.S01E03.Inside.Track.720p.BluRay.x264.AC3.5.1-LeRalouf.mkv - 851.32 MB
Suits.S01.COMPLETE.720p.BluRay.x264.AC3.5.1-LeRalouf/Suits.S01E03.Inside.Track.720p.BluRay.x264.AC3.5.1-LeRalouf.srt - 64.09 KB
Suits.S01.COMPLETE.720p.BluRay.x264.AC3.5.1-LeRalouf/Suits.S01E04.Dirty.Little.Secrets.720p.BluRay.x264.AC3.5.1-LeRalouf.mkv - 918.76 MB
Suits.S01.COMPLETE.720p.BluRay.x264.AC3.5.1-LeRalouf/Suits.S01E04.Dirty.Little.Secrets.720p.BluRay.x264.AC3.5.1-LeRalouf.srt - 68.67 KB
Suits.S01.COMPLETE.720p.BluRay.x264.AC3.5.1-LeRalouf/Suits.S01E05.Bail.Out.720p.BluRay.x264.AC3.5.1-LeRalouf.mkv - 1.02 GB
Suits.S01.COMPLETE.720p.BluRay.x264.AC3.5.1-LeRalouf/Suits.S01E05.Bail.Out.720p.BluRay.x264.AC3.5.1-LeRalouf.srt - 61.44 KB
Suits.S01.COMPLETE.720p.BluRay.x264.AC3.5.1-LeRalouf/Suits.S01E06.Tricks.Of.The.Trade.720p.BluRay.x264.AC3.5.1-LeRalouf.mkv - 941.57 MB
Suits.S01.COMPLETE.720p.BluRay.x264.AC3.5.1-LeRalouf/Suits.S01E06.Tricks.Of.The.Trade.720p.BluRay.x264.AC3.5.1-LeRalouf.srt - 66.81 KB
Suits.S01.COMPLETE.720p.BluRay.x264.AC3.5.1-LeRalouf/Suits.S01E07.Play.The.Man.720p.BluRay.x264.AC3.5.1-LeRalouf.mkv - 828.1 MB
Suits.S01.COMPLETE.720p.BluRay.x264.AC3.5.1-LeRalouf/Suits.S01E07.Play.The.Man.720p.BluRay.x264.AC3.5.1-LeRalouf.srt - 61.38 KB
Suits.S01.COMPLETE.720p.BluRay.x264.AC3.5.1-LeRalouf/Suits.S01E08.Identity.Crisis.720p.BluRay.x264.AC3.5.1-LeRalouf.mkv - 843.11 MB
Suits.S01.COMPLETE.720p.BluRay.x264.AC3.5.1-LeRalouf/Suits.S01E08.Identity.Crisis.720p.BluRay.x264.AC3.5.1-LeRalouf.srt - 69.44 KB
Suits.S01.COMPLETE.720p.BluRay.x264.AC3.5.1-LeRalouf/Suits.S01E09.Undefeated.720p.BluRay.x264.AC3.5.1-LeRalouf.mkv - 836.14 MB
Suits.S01.COMPLETE.720p.BluRay.x264.AC3.5.1-LeRalouf/Suits.S01E09.Undefeated.720p.BluRay.x264.AC3.5.1-LeRalouf.srt - 70.74 KB
Suits.S01.COMPLETE.720p.BluRay.x264.AC3.5.1-LeRalouf/Suits.S01E10.Shelf.Life.720p.BluRay.x264.AC3.5.1-LeRalouf.mkv - 849.69 MB
Suits.S01.COMPLETE.720p.BluRay.x264.AC3.5.1-LeRalouf/Suits.S01E10.Shelf.Life.720p.BluRay.x264.AC3.5.1-LeRalouf.srt - 65.6 KB
Suits.S01.COMPLETE.720p.BluRay.x264.AC3.5.1-LeRalouf/Suits.S01E11.Rules.Of.The.Game.720p.BluRay.x264.AC3.5.1-LeRalouf.mkv - 843.75 MB
Suits.S01.COMPLETE.720p.BluRay.x264.AC3.5.1-LeRalouf/Suits.S01E11.Rules.Of.The.Game.720p.BluRay.x264.AC3.5.1-LeRalouf.srt - 65.17 KB
Suits.S01.COMPLETE.720p.BluRay.x264.AC3.5.1-LeRalouf/Suits.S01E12.Dog.Fight.720p.BluRay.x264.AC3.5.1-LeRalouf.mkv - 817 MB
Suits.S01.COMPLETE.720p.BluRay.x264.AC3.5.1-LeRalouf/Suits.S01E12.Dog.Fight.720p.BluRay.x264.AC3.5.1-LeRalouf.srt - 65.49 KB

Description



Suits season 1 720p BluRay x264-LeRalouf, COMPLETE



Code:
General
Unique ID : 226274375063362419980402953055380840954 (0xAA3ADC0573EDA82812A61C3DEBD221FA)
Format : Matroska
Format version : Version 4 / Version 2
File size : 1.41 GiB
Duration : 1h 21mn
Overall bit rate : 2 488 Kbps
Encoded date : UTC 2016-05-13 08:10:39
Writing application : mkvmerge v9.1.0 ('Little Earthquakes') 64bit
Writing library : libebml v1.3.3 + libmatroska v1.4.4
DURATION : 01:19:43.286000000
NUMBER_OF_FRAMES : 1483
NUMBER_OF_BYTES : 52629
_STATISTICS_WRITING_APP : mkvmerge v9.1.0 ('Little Earthquakes') 64bit
_STATISTICS_WRITING_DATE_UTC : 2016-05-13 08:10:39
_STATISTICS_TAGS : BPS DURATION NUMBER_OF_FRAMES NUMBER_OF_BYTES

Video
ID : 1
Format : AVC
Format/Info : Advanced Video Codec
Format profile : [email protected]/* */
Format settings, CABAC : Yes
Format settings, ReFrames : 9 frames
Codec ID : V_MPEG4/ISO/AVC
Duration : 1h 21mn
Bit rate : 1 798 Kbps
Width : 1 280 pixels
Height : 720 pixels
Display aspect ratio : 16:9
Frame rate mode : Constant
Frame rate : 23.976 fps
Color space : YUV
Chroma subsampling : 4:2:0
Bit depth : 8 bits
Scan type : Progressive
Bits/(Pixel*Frame) : 0.081
Stream size : 1.02 GiB (72%)
Writing library : x264 core 142 r2389 956c8d8
Encoding settings : cabac=1 / ref=9 / deblock=1:-2:-2 / analyse=0x3:0x133 / me=umh / subme=11 / psy=1 / psy_rd=1,00:0,00 / mixed_ref=1 / me_range=24 / chroma_me=1 / trellis=2 / 8x8dct=1 / cqm=0 / deadzone=21,11 / fast_pskip=1 / chroma_qp_offset=-2 / threads=12 / lookahead_threads=1 / sliced_threads=0 / nr=0 / decimate=1 / interlaced=0 / bluray_compat=0 / constrained_intra=0 / bframes=5 / b_pyramid=2 / b_adapt=2 / b_bias=0 / direct=3 / weightb=1 / open_gop=0 / weightp=2 / keyint=250 / keyint_min=23 / scenecut=40 / intra_refresh=0 / rc_lookahead=60 / rc=crf / mbtree=1 / crf=19,0 / qcomp=0,60 / qpmin=0 / qpmax=69 / qpstep=4 / ip_ratio=1,40 / aq=1:1,00
Language : English
Default : Yes
Forced : No
Color primaries : BT.709
Transfer characteristics : BT.709
Matrix coefficients : BT.709
DURATION : 01:21:14.870000000
NUMBER_OF_FRAMES : 116880
NUMBER_OF_BYTES : 1124623125
_STATISTICS_WRITING_APP : mkvmerge v9.1.0 ('Little Earthquakes') 64bit
_STATISTICS_WRITING_DATE_UTC : 2016-05-13 08:10:39
_STATISTICS_TAGS : BPS DURATION NUMBER_OF_FRAMES NUMBER_OF_BYTES

Audio
ID : 2
Format : AC-3
Format/Info : Audio Coding 3
Mode extension : CM (complete main)
Format settings, Endianness : Big
Codec ID : A_AC3
Duration : 1h 21mn
Bit rate mode : Constant
Bit rate : 640 Kbps
Channel(s) : 6 channels
Channel positions : Front: L C R, Side: L R, LFE
Sampling rate : 48.0 KHz
Bit depth : 16 bits
Compression mode : Lossy
Delay relative to video : -5ms
Stream size : 372 MiB (26%)
Language : English
Default : Yes
Forced : No
DURATION : 01:21:14.912000000
NUMBER_OF_FRAMES : 152341
NUMBER_OF_BYTES : 389992960
_STATISTICS_WRITING_APP : mkvmerge v9.1.0 ('Little Earthquakes') 64bit
_STATISTICS_WRITING_DATE_UTC : 2016-05-13 08:10:39
_STATISTICS_TAGS : BPS DURATION NUMBER_OF_FRAMES NUMBER_OF_BYTES

Text
ID : 3
Format : UTF-8
Codec ID : S_TEXT/UTF8
Codec ID/Info : UTF-8 Plain Text
Language : English
Default : No
Forced : No

Menu
00:00:00.000 : :00:00:00.000
00:06:42.694 : :00:06:42.527
00:16:07.967 : :00:16:07.800
00:29:40.570 : :00:29:40.404
00:39:23.361 : :00:39:23.152
00:51:08.940 : :00:51:08.691
01:03:27.970 : :01:03:27.846
01:17:33.982 : :01:17:33.858
01:20:44.714 : :01:20:44.548



The 1st season complete, 720p.

English subtitles included, both .srt and muxed.



Sources: Suits S01 COMPLETE 720p BluRay x264-REWARD-PHD



Screenshots:

58381338eeb15.png 583813451662c.png 5838135185d36.png 5838135e159c7.png 5838136a14731.png

58381377c39d8.png 58381385b1d18.png 583813a4f110e.png 583813ae9342b.png 583813c0770bf.png

Comments:

proxy download |proxyadder |proxybeing.com |proxyblank |