Music torrents - FLAC torrents

Xploding Plastix - Amateur Girlfriends Go Proskirt Agents (2001)[flac][future jazz][TNT] torrent

Download Direct: Xploding Plastix - Amateur Girlfriends Go Proskirt Agents (2001)[flac][future jazz][TNT] - No Client needed
(0) (0)
Download torrent: Xploding Plastix - Amateur Girlfriends Go Proskirt Agents (2001)[flac][future jazz][TNT] torrent download
Torrent created: 10 Nov 2016 23:03:44
Torrent added: 25 Nov 2016 12:25:02 Report this torrent as fake!
Torrent's info hash: D77D9F5A7789D585E0C6767C0BDDCE91EE580A44
Category: Music / FLAC
Seeds: 2 Scraping... Last scraped 1 h ago
Leeches: 1
Downloads: 257
Announce(s):
Tracker S L DL
udp://tracker.tntvillage.scambioetico.org:2710/announce21257
http://tracker.tntvillage.scambioetico.org:2710/announce21257
udp://tracker.coppersurfer.tk:80/announce---
udp://tracker.openbittorrent.com:80/announce---
udp://9.rarbg.com:2710/announce---
udp://tracker4.piratux.com:6969/announce
udp://tracker.publicbt.com:80/announce
Total Size: 419.39 MB
Files:
Xploiding plastix - Amateur Girlfriends Go Proskirt Agents (2001) (flac)/01 - Sports, Not Heavy Crime.flac - 37.42 MB
Xploiding plastix - Amateur Girlfriends Go Proskirt Agents (2001) (flac)/02 - Funnybones & Lazylegs.flac - 36.62 MB
Xploiding plastix - Amateur Girlfriends Go Proskirt Agents (2001) (flac)/03 - G-Hours Starlight.flac - 22.38 MB
Xploiding plastix - Amateur Girlfriends Go Proskirt Agents (2001) (flac)/04 - Behind The Eightball.flac - 36.96 MB
Xploiding plastix - Amateur Girlfriends Go Proskirt Agents (2001) (flac)/05 - Single Stroke Ruffs.flac - 18.03 MB
Xploiding plastix - Amateur Girlfriends Go Proskirt Agents (2001) (flac)/06 - Treat Me Mean, I Need The Reputation.flac - 38.56 MB
Xploiding plastix - Amateur Girlfriends Go Proskirt Agents (2001) (flac)/07 - Relieved Beyond Repair.flac - 6.74 MB
Xploiding plastix - Amateur Girlfriends Go Proskirt Agents (2001) (flac)/08 - Tintinn Amputation.flac - 32.78 MB
Xploiding plastix - Amateur Girlfriends Go Proskirt Agents (2001) (flac)/09 - More Powah To Yah.flac - 40.07 MB
Xploiding plastix - Amateur Girlfriends Go Proskirt Agents (2001) (flac)/10 - Having Smarter Babies.flac - 35.75 MB
Xploiding plastix - Amateur Girlfriends Go Proskirt Agents (2001) (flac)/11 - Far-Flung Tonic.flac - 34.61 MB
Xploiding plastix - Amateur Girlfriends Go Proskirt Agents (2001) (flac)/12 - Happy Jizz Girls.flac - 18.98 MB
Xploiding plastix - Amateur Girlfriends Go Proskirt Agents (2001) (flac)/13 - Doubletalk Gets Through To You.flac - 35.89 MB
Xploiding plastix - Amateur Girlfriends Go Proskirt Agents (2001) (flac)/14 - Comatose Luck.flac - 23.54 MB
Xploiding plastix - Amateur Girlfriends Go Proskirt Agents (2001) (flac)/Amateur Girlfriends Go Proskirt Agents.CUE - 2.84 KB
Xploiding plastix - Amateur Girlfriends Go Proskirt Agents (2001) (flac)/Amateur Girlfriends Go Proskirt Agents.log - 4.6 KB
Xploiding plastix - Amateur Girlfriends Go Proskirt Agents (2001) (flac)/Back.jpg - 287.48 KB
Xploiding plastix - Amateur Girlfriends Go Proskirt Agents (2001) (flac)/Cover.jpg - 142.53 KB
Xploiding plastix - Amateur Girlfriends Go Proskirt Agents (2001) (flac)/Front.jpg - 642.32 KB
Xploiding plastix - Amateur Girlfriends Go Proskirt Agents (2001) (flac)/Xploding Plastix - Amateur Girlfriends Go Proskirt Agents.m3u - 1.19 KB

Description



Xploding Plastix Amateur Girlfriends Go Proskirt Agents



qD2JYWD.jpg





Details

Label.................................: BSCD038

Format................................: CD, Album

Country...............................: Norway

Year..................................: 2001

Genre.................................: Jazz, Electronic

Style.................................: Breakbeat, Acid, Future


Tracks

01.Sports, Not Heavy Crime............: 5:07

02.Funnybones & Lazylegs..............: 4:48

03.6-Hours Starlight..................: 3:22

04.Behind The Eightball...............: 4:49

05.Single Stroke Ruffs................: 2:28

06.Treat Me Mean,I Need The Reputation: 4:58

07.Relieved Beyond Repair.............: 1:45

08.Tintinnamputation..................: 4:26

09.More Powah To Yah..................: 5:26

10.Having Smarter Babies..............: 4:57

11.Far-Flung Tonic....................: 4:51

12.Happy Jizz Girls...................: 2:54

13.Doubletalk Gets Through To You.....: 5:23

14.Comatose Luck......................: 3:39


zlm6CmR.jpg

Credits

Artwork...............................: Tor Aage Larsen Vorren

Double Bass...........................: Erik Velldal

Fender Rhodes Piano, Hammond Organ....: Espen Blystad

Music By, Arrangment..................: Xploding Plastix

Performers:

[Xploding Plastix] Hallvard W.Hagen, Jens Petter Nilsen










«Jens Petter Nilsen and Hallvard Wennersberg Hagen (formerly in Norwegian black metal band Kvist) formed the group in early 1999, and submitted their first demotape in 2000. Their song, "Treat Me Mean, I need the Reputation" became an instant classic when it was released as a 7" on Beatservice Records in 2000. It was later re-released in 2002 on Hospital Records and championed by LTJ Bukem, Coldcut, and Grooverider. Their first album, Amateur Girlfriends Go Proskirt Agents, was released in 2001 on Beatservice, and re-issued in 2004 by Palm Pictures.»



«Since the release of The Donca Matic Singalongs album in 2003, they have been busy working with music for short films, movies, and TV- and radio-productions. They have also collaborated with the Kronos Quartet who have performed their three movement composition, The Order of Things: Music for the Kronos Quartet. They have also worked in the collaboration project Piston Ltd who released the album Domestic Engine in 2007. They also have a sideproject The Electones.»



«Xploding Plastix released a new album in September 2008 entitled Treated Timber Resists Rot on Beatservice Records. This is to be accompanied by a revisited re-release of The Donca Matic Singalongs which was not originally distributed outside of Scandinavia,and a new EP called Devious Dan featuring tracks from previous music videos.»

Source: wikipedia











LOGS



Amateur Girlfriends Go Proskirt Agents.log

Code:
EAC extraction logfile from 13. May 2007, 0:26 for CD
Xploding Plastix / Amateur Girlfriends Go Proskirt Agents

Used drive : ATAPI DVD-ROM 16XMax Adapter: 1 ID: 0
Read mode : Secure with NO C2, accurate stream, disable cache
Read offset correction : 12
Overread into Lead-In and Lead-Out : No

Used output format : C:Program FilesFLACflac.exe (User Defined Encoder)
192 kBit/s
Additional command line options : -V -8 -T "artist=%a" -T "title=%t" -T "album=%g" -T "date=%y" -T "tracknumber=%n" -T "genre=%m" %s

Other options :
Fill up missing offset samples with silence : Yes
Delete leading and trailing silent blocks : No
Native Win32 interface for Win NT & 2000


Track 1
Filename C:Documents and SettingsIsilMy DocumentsOiNKMy_CDsFLACXploding Plastix1 - Sports, Not Heavy Crime.wav

Pre-gap length 0:00:02.00

Peak level 99.8 %
Track quality 100.0 %
Test CRC E4D97492
Copy CRC E4D97492
Copy OK

Track 2
Filename C:Documents and SettingsIsilMy DocumentsOiNKMy_CDsFLACXploding Plastix2 - Funnybones & Lazylegs.wav

Pre-gap length 0:00:02.76

Peak level 99.8 %
Track quality 100.0 %
Test CRC FA981E14
Copy CRC FA981E14
Copy OK

Track 3
Filename C:Documents and SettingsIsilMy DocumentsOiNKMy_CDsFLACXploding Plastix3 - G-Hours Starlight.wav

Peak level 77.4 %
Track quality 100.0 %
Test CRC 46A9220A
Copy CRC 46A9220A
Copy OK

Track 4
Filename C:Documents and SettingsIsilMy DocumentsOiNKMy_CDsFLACXploding Plastix4 - Behind The Eightball.wav

Pre-gap length 0:00:01.45

Peak level 99.8 %
Track quality 100.0 %
Test CRC D37B32B3
Copy CRC D37B32B3
Copy OK

Track 5
Filename C:Documents and SettingsIsilMy DocumentsOiNKMy_CDsFLACXploding Plastix5 - Single Stroke Ruffs.wav

Pre-gap length 0:00:02.30

Peak level 99.8 %
Track quality 100.0 %
Test CRC D4C54AA5
Copy CRC D4C54AA5
Copy OK

Track 6
Filename C:Documents and SettingsIsilMy DocumentsOiNKMy_CDsFLACXploding Plastix6 - Treat Me Mean, I Need The Reputation.wav

Pre-gap length 0:00:01.22

Peak level 93.4 %
Track quality 99.9 %
Test CRC 0D0E6200
Copy CRC 0D0E6200
Copy OK

Track 7
Filename C:Documents and SettingsIsilMy DocumentsOiNKMy_CDsFLACXploding Plastix7 - Relieved Beyond Repair.wav

Pre-gap length 0:00:02.78

Peak level 85.1 %
Track quality 100.0 %
Test CRC 94B558A3
Copy CRC 94B558A3
Copy OK

Track 8
Filename C:Documents and SettingsIsilMy DocumentsOiNKMy_CDsFLACXploding Plastix8 - Tintinn Amputation.wav

Peak level 99.8 %
Track quality 100.0 %
Test CRC 2E19D1B0
Copy CRC 2E19D1B0
Copy OK

Track 9
Filename C:Documents and SettingsIsilMy DocumentsOiNKMy_CDsFLACXploding Plastix9 - More Powah To Yah.wav

Pre-gap length 0:00:01.05

Peak level 99.8 %
Track quality 100.0 %
Test CRC EAD66D08
Copy CRC EAD66D08
Copy OK

Track 10
Filename C:Documents and SettingsIsilMy DocumentsOiNKMy_CDsFLACXploding Plastix10 - Having Smarter Babies.wav

Peak level 99.8 %
Track quality 100.0 %
Test CRC 6F7F8A9C
Copy CRC 6F7F8A9C
Copy OK

Track 11
Filename C:Documents and SettingsIsilMy DocumentsOiNKMy_CDsFLACXploding Plastix11 - Far-Flung Tonic.wav

Pre-gap length 0:00:02.26

Peak level 95.3 %
Track quality 100.0 %
Test CRC 5CE7459B
Copy CRC 5CE7459B
Copy OK

Track 12
Filename C:Documents and SettingsIsilMy DocumentsOiNKMy_CDsFLACXploding Plastix12 - Happy Jizz Girls.wav

Pre-gap length 0:00:02.74

Peak level 99.8 %
Track quality 100.0 %
Test CRC EAC62FEB
Copy CRC EAC62FEB
Copy OK

Track 13
Filename C:Documents and SettingsIsilMy DocumentsOiNKMy_CDsFLACXploding Plastix13 - Doubletalk Gets Through To You.wav

Pre-gap length 0:00:01.70

Peak level 99.8 %
Track quality 99.9 %
Test CRC 663EF8E6
Copy CRC 663EF8E6
Copy OK

Track 14
Filename C:Documents and SettingsIsilMy DocumentsOiNKMy_CDsFLACXploding Plastix14 - Comatose Luck.wav

Pre-gap length 0:00:02.65

Peak level 99.8 %
Track quality 99.8 %
Test CRC 4EA4774E
Copy CRC 4EA4774E
Copy OK

No errors occured


End of status report


Amateur Girlfriends Go Proskirt Agents.cue

Code:
REM GENRE Electronic
REM DATE 2001
REM DISCID CE0DD20E
REM COMMENT "ExactAudioCopy v0.95b4"
CATALOG 7035538881886
PERFORMER "Xploding Plastix"
TITLE "Amateur Girlfriends Go Proskirt Agents"
FILE "01 - Sports, Not Heavy Crime.flac" WAVE
TRACK 01 AUDIO
TITLE "Sports, Not Heavy Crime"
PERFORMER "Xploding Plastix"
ISRC NOMEA0102010
INDEX 01 00:00:00
TRACK 02 AUDIO
TITLE "Funnybones & Lazylegs"
PERFORMER "Xploding Plastix"
ISRC NOMEA0102020
INDEX 00 05:04:25
FILE "02 - Funnybones & Lazylegs.flac" WAVE
INDEX 01 00:00:00
FILE "03 - G-Hours Starlight.flac" WAVE
TRACK 03 AUDIO
TITLE "G-Hours Starlight"
PERFORMER "Xploding Plastix"
ISRC NOMEA0102030
INDEX 01 00:00:00
TRACK 04 AUDIO
TITLE "Behind The Eightball"
PERFORMER "Xploding Plastix"
ISRC NOMEA0102040
INDEX 00 03:20:55
FILE "04 - Behind The Eightball.flac" WAVE
INDEX 01 00:00:00
TRACK 05 AUDIO
TITLE "Single Stroke Ruffs"
PERFORMER "Xploding Plastix"
ISRC NOMEA0102050
INDEX 00 04:47:29
FILE "05 - Single Stroke Ruffs.flac" WAVE
INDEX 01 00:00:00
TRACK 06 AUDIO
TITLE "Treat Me Mean, I Need The Reputation"
PERFORMER "Xploding Plastix"
ISRC NOMEA0004011
INDEX 00 02:26:61
FILE "06 - Treat Me Mean, I Need The Reputation.flac" WAVE
INDEX 01 00:00:00
TRACK 07 AUDIO
TITLE "Relieved Beyond Repair"
PERFORMER "Xploding Plastix"
ISRC NOMEA0102060
INDEX 00 04:55:31
FILE "07 - Relieved Beyond Repair.flac" WAVE
INDEX 01 00:00:00
FILE "08 - Tintinn Amputation.flac" WAVE
TRACK 08 AUDIO
TITLE "Tintinn Amputation"
PERFORMER "Xploding Plastix"
ISRC NOMEA0102070
INDEX 01 00:00:00
TRACK 09 AUDIO
TITLE "More Powah To Yah"
PERFORMER "Xploding Plastix"
ISRC NOMEA0102080
INDEX 00 04:25:26
FILE "09 - More Powah To Yah.flac" WAVE
INDEX 01 00:00:00
FILE "10 - Having Smarter Babies.flac" WAVE
TRACK 10 AUDIO
TITLE "Having Smarter Babies"
PERFORMER "Xploding Plastix"
ISRC NOMEA0102090
INDEX 01 00:00:00
TRACK 11 AUDIO
TITLE "Far-Flung Tonic"
PERFORMER "Xploding Plastix"
ISRC NOMEA0004021
INDEX 00 04:54:74
FILE "11 - Far-Flung Tonic.flac" WAVE
INDEX 01 00:00:00
TRACK 12 AUDIO
TITLE "Happy Jizz Girls"
PERFORMER "Xploding Plastix"
ISRC NOMEA0102100
INDEX 00 04:48:62
FILE "12 - Happy Jizz Girls.flac" WAVE
INDEX 01 00:00:00
TRACK 13 AUDIO
TITLE "Doubletalk Gets Through To You"
PERFORMER "Xploding Plastix"
ISRC NOMEA0102110
INDEX 00 02:52:25
FILE "13 - Doubletalk Gets Through To You.flac" WAVE
INDEX 01 00:00:00
TRACK 14 AUDIO
TITLE "Comatose Luck"
PERFORMER "Xploding Plastix"
ISRC NOMEA0102120
INDEX 00 05:21:06
FILE "14 - Comatose Luck.flac" WAVE
INDEX 01 00:00:00






PREVIEW

More Power To Yah





Comatose Luck





NOTES

More informations (italian) on TNT VILLAGE



Comments:

proxy download |proxyadder |proxybeing.com |proxyblank |